#TITLE:Bubble Pop!;
#SUBTITLE:Expi3nze;
#ARTIST:Hyun A;
#TITLETRANSLIT:;
#SUBTITLETRANSLIT:;
#ARTISTTRANSLIT:;
#CREDIT:;
#BANNER:bn.png;
#BACKGROUND:bg.png;
#LYRICSPATH:;
#CDTITLE:cdtitle.png;
#MUSIC:Bubble Pop!.mp3;
#OFFSET:-0.371;
#SAMPLESTART:46.398;
#SAMPLELENGTH:29.589;
#SELECTABLE:YES;
#BPMS:0.000=146.002,2.000=145.994,3.000=146.002,5.000=145.994,6.000=146.002,7.000=292.053,7.500=73.005,7.750=146.026,8.000=145.994,9.000=146.002,12.000=145.994,13.000=146.002,15.000=292.053,15.500=73.005,15.750=146.026,16.000=145.994,17.000=146.002,20.000=145.994,21.000=146.002,23.000=145.994,24.000=146.002,26.000=145.994,27.000=146.002,30.000=145.994,31.000=146.002,33.000=145.994,34.000=146.002,37.000=145.994,38.000=146.002,40.000=145.994,41.000=146.002,44.000=145.994,45.000=146.002,46.000=73.001,46.333=292.005,47.000=73.001,47.333=292.005,48.000=146.002,51.000=145.994,52.000=146.002,54.000=145.994,55.000=146.002,58.000=145.994,59.000=146.002,61.000=145.994,62.000=146.002,65.000=145.994,66.000=146.002,68.000=145.994,69.000=146.002,72.000=145.994,73.000=146.002,75.000=145.994,76.000=146.002,78.000=145.994,79.000=146.002,80.000=292.053,80.500=73.005,80.750=146.026,81.000=145.994,82.000=146.002,84.000=145.994,85.000=146.002,88.000=145.994,89.000=146.002,91.000=145.994,92.000=146.002,95.000=145.994,96.000=146.002,98.000=145.994,99.000=146.002,102.000=145.994,103.000=146.002,105.000=145.994,106.000=146.002,109.000=145.994,110.000=146.002,111.000=73.001,111.333=292.005,112.000=146.002,115.000=145.994,116.000=146.002,118.000=145.994,119.000=146.002,121.000=145.994,122.000=146.002,125.000=145.994,126.000=146.002,128.000=145.994,129.000=146.002,132.000=145.994,133.000=146.002,135.000=145.994,136.000=146.002,139.000=145.994,140.000=146.002,142.000=73.001,142.333=292.005,143.000=73.001,143.333=292.005,144.000=146.002,147.000=145.994,148.000=146.002,150.000=145.994,151.000=146.002,153.000=145.994,154.000=146.002,157.000=145.994,158.000=146.002,160.000=145.994,161.000=146.002,164.000=145.994,165.000=146.002,167.000=145.994,168.000=146.002,171.000=145.994,172.000=146.002,174.000=73.001,174.333=292.005,175.000=146.002,178.000=145.994,179.000=146.002,181.000=145.994,182.000=146.002,184.000=145.994,185.000=146.002,188.000=145.994,189.000=146.002,191.000=145.994,192.000=146.002,195.000=145.994,196.000=146.002,198.000=145.994,199.000=146.002,202.000=145.994,203.000=146.002,205.000=145.994,206.000=146.002,209.000=145.994,210.000=146.002,212.000=145.994,213.000=146.002,216.000=145.994,217.000=146.002,219.000=145.994,220.000=146.002,223.000=145.994,224.000=146.002,226.000=145.994,227.000=146.002,229.000=145.994,230.000=146.002,232.000=145.994,233.000=146.002,236.000=145.994,237.000=146.002,239.000=145.994,240.000=146.002,243.000=145.994,244.000=146.002,246.000=145.994,247.000=146.002,250.000=145.994,251.000=146.002,253.000=145.994,254.000=146.002,257.000=145.994,258.000=146.002,260.000=145.994,261.000=146.002,264.000=145.994,265.000=146.002,267.000=145.994,268.000=146.002,271.000=145.994,272.000=146.002,274.000=145.994,275.000=291.989,275.500=73.005,275.750=145.994,276.000=146.002,278.000=73.001,278.333=292.005,279.000=73.001,279.333=292.005,280.000=146.002,282.000=145.994,283.000=146.002,286.000=145.994,287.000=146.002,289.000=145.994,290.000=146.002,292.000=145.994,293.000=146.002,296.000=145.994,297.000=146.002,299.000=145.994,300.000=146.002,303.000=145.994,304.000=146.002,306.000=145.994,307.000=146.002,310.000=73.001,310.333=292.005,311.000=146.002,313.000=145.994,314.000=146.002,317.000=145.994,318.000=146.002,320.000=145.994,321.000=146.002,323.000=145.994,324.000=146.002,327.000=145.994,328.000=146.002,330.000=145.994,331.000=146.002,334.000=145.994,335.000=146.002,337.000=145.994,338.000=146.002,341.000=145.994,342.000=73.001,342.333=292.005,343.000=146.002,345.000=145.994,346.000=146.002,349.000=145.994,350.000=146.002,352.000=145.994;
#STOPS:;
#BGCHANGES:;
// cache tags:
#FIRSTBEAT:0.000;
#LASTBEAT:352.000;
#SONGFILENAME:Songs/SDO pack 1/Bubble Pop! (HyunA)/Bubble Pop!.sm;
#HASMUSIC:1;
#HASBANNER:1;
#MUSICLENGTH:146.550;
// end cache tags

//---------------dance-single - ----------------
#NOTES:
     dance-single:
     :
     Hard:
     19:
     1.000,1.000,1.000,0.587,0.720,783.000,314.000,86.000,0.000,206.000:
0200
1000
0000
0010
0020
1000
0000
1000
,
2300
0100
0000
0001
0032
0100
0110
0000
,
3200
1000
1010
0010
2003
0001
0011
0001
,
0302
0100
0110
0010
3000
0100
1110
0000
,
1113
0000
1110
0000
1000
0100
1110
0001
,
0000
1100
1100
0000
2000
0000
0011
3110
,
1100
0111
0111
0111
,
1000
0100
1110
0001
0000
0011
0110
0000
,
1110
0000
1110
0000
0001
0010
0111
1000
,
0000
0101
0101
0000
0002
0000
0110
1103
,
0011
1011
1101
1101
,
0020
0032
0203
2300
3111
0000
0111
0000
,
0111
0000
1100
0110
0011
0100
1101
0011
,
0110
1000
1110
0001
0010
0100
1110
0000
,
0011
1000
1110
1100
1001
0010
1011
1001
,
1100
1000
0111
0101
0101
0001
1110
0100
,
1000
0010
0112
0003
2001
3201
1321
0132
,
0010
0003
0001
0000
0111
0000
0001
0000
1000
0000
1100
0000
1110
0000
1000
0000
,
0010
1000
0112
0003
2001
3201
1321
0132
,
2010
0003
3000
0000
2111
0000
3102
0000
2103
0000
3001
0000
0111
0000
0001
0000
,
1111
0000
0011
0110
1100
1000
0111
0101
,
0101
0001
1101
0110
0011
0001
1110
0000
,
1110
0000
0011
0110
1100
1000
0111
1100
,
1100
0001
1011
1001
0011
0001
1110
0000
,
1110
0000
0112
0003
2001
3201
1321
0132
,
0010
0003
0001
0000
0111
0000
0001
0000
1000
0000
1100
0000
1110
0000
1000
0000
,
0011
1000
0011
0000
1000
0011
1011
0100
,
0010
0001
2111
3002
2103
3100
0111
0000
,
1111
0000
1000
0001
1110
0001
1100
0001
1100
0001
1000
0001
1110
0001
0010
0100
,
1001
0010
0001
0010
1101
0010
1101
0010
1001
0100
0011
1000
0111
1000
0100
0010
,
1001
0100
0010
0001
1110
0001
0010
0001
1010
0001
1010
0001
1110
0001
0100
1000
,
0101
1000
0100
1000
0111
1000
0101
1000
0011
0100
1000
0001
1110
0001
1010
0001
,
1010
0001
0010
0100
1011
0100
1000
0001
0110
0001
0110
0001
1110
0001
0010
0001
,
1100
0001
0010
0001
1110
0001
1010
0001
1010
0000
0010
1000
0111
1000
0100
1000
,
1110
1000
0111
1000
1110
1000
0111
1000
1110
1000
0111
1000
1111
0100
0010
0001
,
1110
0001
1110
0001
1110
0001
1110
0001
1110
0000
0000
0000
1111
0000
0000
0000
,
1111
0000
1000
0001
1110
0001
1100
0001
1100
0001
1000
0001
1110
0001
0010
0100
,
1001
0010
0001
0010
1101
0010
1101
0010
1001
0100
0011
1000
0111
1000
0100
0010
,
1001
0100
0010
0001
1110
0001
0010
0001
1010
0001
1010
0001
1110
0001
0100
1000
,
0101
1000
0100
1000
0111
1000
0101
1000
0011
0100
1000
0001
1110
0001
1010
0001
,
1010
0001
0010
0100
1011
0100
1000
0001
0110
0001
0110
0001
1110
0001
0010
0001
,
1100
0001
0010
0001
1110
0001
1010
0001
1010
0000
0010
1000
0111
1000
0100
1000
,
1110
1000
0111
1000
1110
1000
0111
1000
1110
1000
0111
1000
1111
0100
1000
0010
,
1101
0010
1101
0010
1101
0010
1101
0010
1101
0000
0000
0000
1111
0000
0000
0000
,
2000
3200
0302
2003
,
3002
0203
2300
3020
,
0230
0000
0300
0000
0000
0000
0010
1000
1100
0000
0000
0000
2000
0000
3010
0000
,
1000
0100
0001
1000
0100
0000
0001
0000
0010
0000
0010
0000
0100
0001
0100
0001
,
0100
0000
1000
0100
0010
0100
0001
0000
0111
0000
0000
0000
0020
0000
0000
0000
,
2030
0000
3210
0000
0312
0000
0003
0000
2000
0100
0200
0010
3320
1100
2230
0000
,
3311
0000
0000
0200
0311
0000
0020
2000
,
3130
1000
0010
0000
0010
0000
0000
0000
0100
0100
0100
0100
0010
0100
0100
0000
,
0100
0001
0001
0100
1000
0001
0100
1000
0011
0000
0000
0000
1000
0000
0100
0000
,
0000
0000
0011
0000
0011
0000
1000
0000
0100
0000
0010
0000
0001
1000
0100
1000
,
2000
0010
3020
0001
0032
0010
2013
0000
3111
0000
0000
0000
0010
0000
0100
0000
,
1100
0001
1100
0000
1100
0000
0000
0000
0111
0000
0000
0000
0010
0100
0010
0000
,
0012
0000
1203
1000
2300
0000
3002
0000
1113
0000
0000
0000
1000
0000
0100
0000
,
0001
0000
1100
0000
1100
0000
0000
0000
0020
0000
0001
0002
0130
0203
0001
0301
,
0010
0001
0002
0100
1203
1000
2300
0000
3111
0000
0000
0000
0010
0000
0100
0010
,
0100
0010
0100
0000
0110
0000
0000
0000
0100
0001
0100
1000
0010
0000
0001
0000
,
0011
0000
0110
0000
1100
0000
1000
0000
0011
0000
0000
0000
0002
1000
0100
0000
,
2203
0000
0000
0000
,
3302
0000
1000
0000
0100
1000
1000
0000
,
0010
0000
0100
0010
0000
1000
1000
0000
,
2003
0000
0010
0000
0010
0100
0001
0000
,
0100
0000
0001
0010
0000
0100
0100
0000
,
3200
0000
1000
0000
0001
0010
1000
0000
,
0010
0000
1000
1000
0000
1000
0010
0000
,
0311
0011
1100
0110
0011
1100
1110
0000
,
1100
1100
0001
1100
1110
0000
1110
0000
,
1111
0000
1000
0001
1110
0001
1100
0001
1100
0001
1000
0001
1110
0001
0010
0100
,
1001
0010
0001
0010
1101
0010
1101
0010
1001
0100
0011
1000
0111
1000
0100
0010
,
1001
0100
0010
0001
1110
0001
0010
0001
1010
0001
1010
0001
1110
0001
0100
1000
,
0101
1000
0100
1000
0111
1000
0101
1000
0011
0100
1000
0001
1110
0001
1010
0001
,
1010
0001
0010
0100
1011
0100
1000
0001
0110
0001
0110
0001
1110
0001
0010
0001
,
1100
0001
0010
0001
1110
0001
1010
0001
1010
0000
0010
1000
0111
1000
0100
1000
,
1110
1000
0111
1000
1110
1000
0111
1000
1110
1000
0111
1000
1111
0100
0010
0001
,
1110
0001
1110
0001
1110
0001
1110
0001
1110
0000
0000
0000
1111
0000
0000
0000
,
1101
0000
1101
0000
1000
0100
1110
0001
,
0000
1100
1100
0000
2000
0000
0011
3110
,
1100
0111
0111
0111
,
1000
0100
1110
0001
0000
0011
0110
0000
,
1110
0000
1110
0000
0001
0010
0111
1000
,
0000
0101
0101
0000
0002
0000
0110
1103
,
0011
1011
1101
1101
,
0020
0032
0203
2300
3111
0000
0111
0000
,
0020
0030
0020
0030
1000
0001
1000
0001
,
0000
1010
1010
0000
2000
0000
0000
0000
,
3000
0000
0000
0000
,
0000
0000
0000
0000
,
0000
0000
0000
0000
,
0000
0000
0000
0000
,
0000
0000
0000
0000
;
